找回密码
 立即注册
快捷导航
发帖
飘盘 聊天 资讯 萌图 漫画 动画 规则 帮助 手机客户端 新手指南
查看: 1106|回复: 37

[粤语动画] [哆啦A梦剧场版1989:大雄的日本诞生][1080i/HDTV/TS/国粤日三语/14.74GB]

  [复制链接]

签到天数: 169 天

[LV.7]常住居民III

15

主题

1

好友

205

积分

土之精灵LV.1

Rank: 5Rank: 5Rank: 5

帖子
64
雪点
1468
阅读权限
40
性别
在线时间
65 小时
注册时间
2015-11-27
最后登录
2019-11-9
发表于 2019-2-6 19:21:48 | 显示全部楼层 |阅读模式
‍‍片源由a574045075提供,在此感谢!
台配国语音轨、粤语音轨提取自VCD,已做调制匹配高清重制版。
如需转载,请注明出处!
[attach]117212[/attach]
◎译  名 哆啦A梦:大雄的日本诞生 / Doraemon: Nobita no Nihon tanjô / 哆啦A梦:大雄与日本诞生
◎片  名 ドラえもん のび太の日本誕生
◎年  代 1989
◎产  地 日本
◎类  别 科幻 / 动画 / 冒险
◎语  言 日语
◎上映日期 1989-03-11(日本)
◎IMDb评分  6.7/10 from 130 users
‍‍◎IMDb链接  ‍‍http://www.imdb.com/title/tt1147511
‍‍◎豆瓣评分 8.3/10 from 3483 users
‍‍‍‍◎豆瓣链接‍‍ ‍‍https://movie.douban.com/subject/1458897/
‍‍◎片  长 100分钟
◎导  演 芝山努 Tsutomu Shibayama
◎编  剧 藤子・F・不二雄 F. Fujio Fujiko
◎主  演 大山信代 Nobuyo Ohyama
                   小原乃梨子 Noriko Ohara
       野村道子 Michiko Nomura
       立壁和也 Kazuya Tatekabe
       肝付兼太 Kaneta Kimotsuki

◎简  介  

  由于不堪忍受老师和妈妈的责骂,大雄决定实施第n次出走计划。与此同时,胖虎、小夫、静香也因为各种各样的原离家出走。小伙伴们凑在一起,但拥挤狭窄的现代都市没有他们的立锥之地。在哆啦A梦的帮助下,他们乘坐时光机来到7万年前的日本。当时这片土地上渺无人烟,绿草晴空,空气清新。小伙伴们展开想象,营造属于自己的快乐家园。
  偶然间,他们遇到从远古穿越时空来到现代的中国少年克克鲁。克克鲁生在爱好和平的光明族,他们这一族被凶恶残暴的黑暗族袭击,克克鲁则恰巧碰到时空乱流来到现代。大雄他们将克克鲁带到7万年前的日本,小伙伴们同情这个男孩的遭遇,决定帮助他打败黑暗族,拯救族人……‍‍‍‍‍‍‍‍‍‍‍‍‍‍‍‍‍‍


[attach]117213[/attach]
[attach]117214[/attach]
[attach]117215[/attach]
  1. General
  2. ID                             : 1 (0x1)
  3. Complete name                  : J:\Doraemon Nobita and the Birth of Japan 1989 HDTV 1080i MPEG-2 3Audio-doraemon.ts
  4. Format                         : MPEG-TS
  5. File size                      : 14.7 GiB
  6. Duration                       : 1 h 40 min
  7. Overall bit rate mode          : Variable
  8. Overall bit rate               : 21.0 Mb/s
  9. Maximum Overall bit rate       : 35.5 Mb/s

  10. Video
  11. ID                             : 4113 (0x1011)
  12. Menu ID                        : 1 (0x1)
  13. Format                         : MPEG Video
  14. Format version                 : Version 2
  15. Format profile                 : Main@High
  16. Format settings                : CustomMatrix / BVOP
  17. Format settings, BVOP          : Yes
  18. Format settings, Matrix        : Custom
  19. Format settings, GOP           : Variable
  20. Format settings, picture struc : Frame
  21. Codec ID                       : 2
  22. Duration                       : 1 h 40 min
  23. Bit rate mode                  : Variable
  24. Width                          : 1 920 pixels
  25. Height                         : 1 080 pixels
  26. Display aspect ratio           : 16:9
  27. Frame rate                     : 29.970 (30000/1001) FPS
  28. Color space                    : YUV
  29. Chroma subsampling             : 4:2:0
  30. Bit depth                      : 8 bits
  31. Scan type                      : Interlaced
  32. Scan order                     : Top Field First
  33. Compression mode               : Lossy
  34. Time code of first frame       : 00:00:00:00
  35. Time code source               : Group of pictures header
  36. GOP, Open/Closed               : Open
  37. Color primaries                : BT.709
  38. Transfer characteristics       : BT.709
  39. Matrix coefficients            : BT.709

  40. Audio #1
  41. ID                             : 4352 (0x1100)
  42. Menu ID                        : 1 (0x1)
  43. Format                         : AAC LC
  44. Format/Info                    : Advanced Audio Codec Low Complexity
  45. Format version                 : Version 2
  46. Muxing mode                    : ADTS
  47. Codec ID                       : 15-2
  48. Duration                       : 1 h 40 min
  49. Channel(s)                     : 2 channels
  50. Channel layout                 : L R
  51. Sampling rate                  : 48.0 kHz
  52. Frame rate                     : 46.875 FPS (1024 SPF)
  53. Compression mode               : Lossy
  54. Language                       : Japanese

  55. Audio #2
  56. ID                             : 4353 (0x1101)
  57. Menu ID                        : 1 (0x1)
  58. Format                         : AC-3
  59. Format/Info                    : Audio Coding 3
  60. Commercial name                : Dolby Digital
  61. Codec ID                       : 129
  62. Duration                       : 1 h 40 min
  63. Bit rate mode                  : Constant
  64. Bit rate                       : 224 kb/s
  65. Channel(s)                     : 2 channels
  66. Channel layout                 : L R
  67. Sampling rate                  : 48.0 kHz
  68. Frame rate                     : 31.250 FPS (1536 SPF)
  69. Bit depth                      : 16 bits
  70. Compression mode               : Lossy
  71. Stream size                    : 161 MiB (1%)
  72. Language                       : Chinese
  73. Service kind                   : Complete Main

  74. Audio #3
  75. ID                             : 4354 (0x1102)
  76. Menu ID                        : 1 (0x1)
  77. Format                         : AC-3
  78. Format/Info                    : Audio Coding 3
  79. Commercial name                : Dolby Digital
  80. Codec ID                       : 129
  81. Duration                       : 1 h 40 min
  82. Bit rate mode                  : Constant
  83. Bit rate                       : 224 kb/s
  84. Channel(s)                     : 2 channels
  85. Channel layout                 : L R
  86. Sampling rate                  : 48.0 kHz
  87. Frame rate                     : 31.250 FPS (1536 SPF)
  88. Bit depth                      : 16 bits
  89. Compression mode               : Lossy
  90. Stream size                    : 161 MiB (1%)
  91. Language                       : Chinese
  92. Service kind                   : Complete Main‍‍
复制代码

购买主题 已有 17 人购买  本主题需向作者支付 5 雪点 才能浏览
飘雪动漫社★缤纷动漫☆创意未来!

签到天数: 1288 天

[LV.10]以坛为家III

13

主题

3

好友

3818

积分

风之精灵LV.2

Rank: 13Rank: 13Rank: 13

帖子
1605
雪点
26245
阅读权限
80
性别
保密
在线时间
1354 小时
注册时间
2012-6-1
最后登录
2019-11-21
发表于 2019-2-6 19:32:42 | 显示全部楼层
多謝分享,收藏粵語版先
飘雪动漫社★缤纷动漫☆创意未来!
回复 支持 反对

使用道具 举报

签到天数: 1524 天

[LV.Master]伴坛终老

 成长值: 7995

203

主题

5

好友

1万

积分

贵宾

Rank: 25Rank: 25Rank: 25Rank: 25Rank: 25

帖子
3407
雪点
86659
阅读权限
150
性别
保密
在线时间
2604 小时
注册时间
2014-6-6
最后登录
2019-11-21
发表于 2019-2-6 20:32:23 | 显示全部楼层
多谢分享哆啦A梦经典剧场版
飘雪动漫社★缤纷动漫☆创意未来!
回复 支持 反对

使用道具 举报

签到天数: 481 天

[LV.9]以坛为家II

29

主题

1

好友

2662

积分

风之精灵LV.1

Rank: 8Rank: 8Rank: 8Rank: 8

帖子
2586
雪点
279
阅读权限
70
性别
保密
在线时间
2634 小时
注册时间
2014-8-9
最后登录
2019-11-19
发表于 2019-2-6 20:32:29 | 显示全部楼层
哆啦A梦剧场版支持粤语又先
飘雪动漫社★缤纷动漫☆创意未来!
回复 支持 反对

使用道具 举报

签到天数: 1795 天

[LV.Master]伴坛终老

20

主题

0

好友

1万

积分

炎之精灵LV.2

人生如戏,全靠演技 ~

Rank: 17Rank: 17Rank: 17Rank: 17Rank: 17

帖子
19690
雪点
195
阅读权限
110
性别
在线时间
1023 小时
注册时间
2014-7-31
最后登录
2019-11-21

百变小樱知世李小狼木之本樱基路仔だんご大家族彭格列黑手党阪本先生初音未来巡音露卡Haru櫻乃★丶见崎鸣風穴あける☆アリア侵略!乌贼娘女王控水の人鱼松前緒花松前緒花骑士王Saber悪魔の白娅みほの梦想夢想の的愛~靈犀棚町薰Shiny Gift坂田銀時神樂志村新八定春女仆玛利亚朝风理沙花菱美希瀨川泉紫原敦黄濑凉太绿间真太郎黑子哲也哈比夏露露波波乔巴西雅爾·法多姆海貝梦想の的爱~初衷冈崎朋也莱.马斯丹森島遙L桂小太郎爱德华.艾力克艾尔凡斯.艾力克春风千樱安城鸣子赤司征十郎羅羅諾亞卓洛绫崎飒三千院凪藤林椋

发表于 2019-2-6 22:15:46 | 显示全部楼层
中国人是日本人的祖先。
回复 支持 反对

使用道具 举报

签到天数: 799 天

[LV.10]以坛为家III

11

主题

2

好友

1493

积分

土之精灵LV.3

小弟

Rank: 7Rank: 7Rank: 7

帖子
1395
雪点
1211
阅读权限
60
性别
在线时间
654 小时
注册时间
2012-9-8
最后登录
2019-11-21
发表于 2019-2-6 23:07:52 | 显示全部楼层
thanks for your sharing!!!
別人笑我太瘋癲,我笑他們看不穿
回复 支持 反对

使用道具 举报

签到天数: 1001 天

[LV.10]以坛为家III

34

主题

3

好友

1万

积分

炎之精灵LV.1

Rank: 17Rank: 17Rank: 17Rank: 17Rank: 17

帖子
10343
雪点
971
阅读权限
100
性别
在线时间
888 小时
注册时间
2016-11-29
最后登录
2019-11-21
发表于 2019-2-6 23:33:00 | 显示全部楼层
感谢楼主嘅合成分享,辛苦嗮
飘雪动漫社★缤纷动漫☆创意未来!
回复 支持 反对

使用道具 举报

签到天数: 2416 天

[LV.Master]伴坛终老

 成长值: 7440

8

主题

0

好友

4588

积分

贵宾

Rank: 25Rank: 25Rank: 25Rank: 25Rank: 25

帖子
1732
雪点
34675
阅读权限
150
性别
保密
在线时间
1590 小时
注册时间
2012-8-5
最后登录
2019-11-21
发表于 2019-2-6 23:36:34 | 显示全部楼层
多謝分享舊版的大雄的日本誕生。
飘雪动漫社★缤纷动漫☆创意未来!
回复 支持 反对

使用道具 举报

签到天数: 1184 天

[LV.10]以坛为家III

18

主题

1

好友

9678

积分

风之精灵LV.3

Rank: 15Rank: 15Rank: 15

帖子
9394
雪点
3357
阅读权限
90
在线时间
697 小时
注册时间
2016-3-13
最后登录
2019-11-21
发表于 2019-2-7 02:25:08 | 显示全部楼层
呢套睇嗰陣覺得有教育意味
飘雪动漫社★缤纷动漫☆创意未来!
回复 支持 反对

使用道具 举报

签到天数: 716 天

[LV.9]以坛为家II

16

主题

0

好友

3555

积分

风之精灵LV.2

Rank: 13Rank: 13Rank: 13

帖子
2979
雪点
6843
阅读权限
80
在线时间
1459 小时
注册时间
2017-9-14
最后登录
2019-11-21
发表于 2019-2-7 03:30:05 | 显示全部楼层
試下下載先,多謝晒
飘雪动漫社★缤纷动漫☆创意未来!
回复 支持 反对

使用道具 举报

您需要登录后才可以回帖 登录 | 立即注册

本版积分规则

下载客户端
安卓客户端 IOS客户端

快来加入我们吧!!

官方QQ群号

飘雪动漫社

Powered by Discuz! X3.4© 2001-2019 Comsenz Inc.

手机版| 小黑屋| Archiver| 粤梦缘

GMT+8, 2019-11-21 20:24 , Processed in 0.139691 second(s), 40 queries , MemCache On.