找回密码
 立即注册
快捷导航
发帖
飘盘 聊天 资讯 萌图 漫画 动画 规则 帮助 手机客户端 新手指南
查看: 790|回复: 43

[粤语动画] [哆啦A梦剧场版1990:大雄与动物行星][1080i/HDTV/TS/三国配粤客日七语/15.46GB]

  [复制链接]

签到天数: 165 天

[LV.7]常住居民III

13

主题

1

好友

189

积分

水之精灵LV.3

Rank: 4Rank: 4

帖子
61
雪点
1330
阅读权限
30
性别
在线时间
61 小时
注册时间
2015-11-27
最后登录
2019-8-11
发表于 2019-4-2 01:15:09 | 显示全部楼层 |阅读模式
片源由a574045075提供,在此感谢!
台配国语音轨(小叮当版)、陆配国语(小叮当版)、粤语音轨(叮当版)提取自VCD,台配国语音轨(哆啦A梦版)、粤语音轨(多啦A梦版)提取自DVD,台湾客家话音轨取自台湾客语频道源码,已做调制匹配高清重制版。
如需转载,请注明出处!

[attach]118666[/attach]
◎译  名 哆啦A梦:大雄与动物行星 / Doraemon: Nobita to Animaru puranetto / 哆啦A梦:大雄与惑星之谜
◎片  名 ドラえもん のび太とアニマル惑
◎年  代 1990
◎产  地 日本
◎类  别 科幻 / 动画 / 冒险
◎语  言 日语
◎上映日期 1990-03-10(日本)
◎IMDb评分  6.6/10 from 112 users
◎IMDb链接  http://www.imdb.com/title/tt1147520
‍‍◎豆瓣评分 8.2/10 from 2503 users
◎豆瓣链接 https://movie.douban.com/subject/1458898/
‍‍◎片  长 100分钟
◎导  演 芝山努 Tsutomu Shibayama
◎编  剧 藤子・F・不二雄 F. Fujio Fujiko
◎主  演 大山信代 Nobuyo Ohyama
       小原乃梨子 Noriko Ohara
       野村道子 Michiko Nomura
       立壁和也 Kazuya Tatekabe
       肝付兼太 Kaneta Kimotsuki

◎简  介  

  大雄在睡梦中通过粉红色的雾走进一个动物王国,里面人人和平相处,科技发达,是真正的乌托邦!原来动物王国是在遥远的星球,而粉红色之雾是来自未来世界的随意气,是可以用来通往遥远的地方!哆啦A梦回到地球后,收到未来动物星球的求救消息,但随意气已经用完,他们该怎么办呢?
  在这个绿色的动物星球上,都是些爱好和平的动物们。但和动物星的平行星中,却住着贪婪的人类。于是战争又开始了……‍‍‍‍‍‍

[attach]118667[/attach]
[attach]118668[/attach]
[attach]118669[/attach]
  1. General
  2. ID                             : 1 (0x1)
  3. Complete name                  : J:\Doraemon Nobita and the Animal Planet 1990 HDTV 1080i MPEG-2 7Audio-doraemon.ts
  4. Format                         : MPEG-TS
  5. File size                      : 15.5 GiB
  6. Duration                       : 1 h 40 min
  7. Overall bit rate mode          : Variable
  8. Overall bit rate               : 22.1 Mb/s
  9. Maximum Overall bit rate       : 35.5 Mb/s

  10. Video
  11. ID                             : 4113 (0x1011)
  12. Menu ID                        : 1 (0x1)
  13. Format                         : MPEG Video
  14. Format version                 : Version 2
  15. Format profile                 : Main@High
  16. Format settings                : CustomMatrix / BVOP
  17. Format settings, BVOP          : Yes
  18. Format settings, Matrix        : Custom
  19. Format settings, GOP           : Variable
  20. Format settings, picture struc : Frame
  21. Codec ID                       : 2
  22. Duration                       : 1 h 40 min
  23. Bit rate mode                  : Variable
  24. Width                          : 1 920 pixels
  25. Height                         : 1 080 pixels
  26. Display aspect ratio           : 16:9
  27. Frame rate                     : 29.970 (30000/1001) FPS
  28. Color space                    : YUV
  29. Chroma subsampling             : 4:2:0
  30. Bit depth                      : 8 bits
  31. Scan type                      : Interlaced
  32. Scan order                     : Top Field First
  33. Compression mode               : Lossy
  34. Time code of first frame       : 00:00:00:00
  35. Time code source               : Group of pictures header
  36. GOP, Open/Closed               : Open
  37. Color primaries                : BT.709
  38. Transfer characteristics       : BT.709
  39. Matrix coefficients            : BT.709

  40. Audio #1
  41. ID                             : 4352 (0x1100)
  42. Menu ID                        : 1 (0x1)
  43. Format                         : AAC LC
  44. Format/Info                    : Advanced Audio Codec Low Complexity
  45. Format version                 : Version 2
  46. Muxing mode                    : ADTS
  47. Codec ID                       : 15-2
  48. Duration                       : 1 h 40 min
  49. Bit rate mode                  : Variable
  50. Channel(s)                     : 2 channels
  51. Channel layout                 : L R
  52. Sampling rate                  : 48.0 kHz
  53. Frame rate                     : 46.875 FPS (1024 SPF)
  54. Compression mode               : Lossy
  55. Language                       : Japanese

  56. Audio #2
  57. ID                             : 4353 (0x1101)
  58. Menu ID                        : 1 (0x1)
  59. Format                         : AC-3
  60. Format/Info                    : Audio Coding 3
  61. Commercial name                : Dolby Digital
  62. Codec ID                       : 129
  63. Duration                       : 1 h 40 min
  64. Bit rate mode                  : Constant
  65. Bit rate                       : 384 kb/s
  66. Channel(s)                     : 2 channels
  67. Channel layout                 : L R
  68. Sampling rate                  : 48.0 kHz
  69. Frame rate                     : 31.250 FPS (1536 SPF)
  70. Bit depth                      : 16 bits
  71. Compression mode               : Lossy
  72. Stream size                    : 275 MiB (2%)
  73. Language                       : Chinese (台配国语哆啦A梦版)
  74. Service kind                   : Complete Main

  75. Audio #3
  76. ID                             : 4354 (0x1102)
  77. Menu ID                        : 1 (0x1)
  78. Format                         : AC-3
  79. Format/Info                    : Audio Coding 3
  80. Commercial name                : Dolby Digital
  81. Codec ID                       : 129
  82. Duration                       : 1 h 40 min
  83. Bit rate mode                  : Constant
  84. Bit rate                       : 192 kb/s
  85. Channel(s)                     : 2 channels
  86. Channel layout                 : L R
  87. Sampling rate                  : 48.0 kHz
  88. Frame rate                     : 31.250 FPS (1536 SPF)
  89. Bit depth                      : 16 bits
  90. Compression mode               : Lossy
  91. Stream size                    : 137 MiB (1%)
  92. Language                       : Chinese (台配国语小叮当版)
  93. Service kind                   : Complete Main

  94. Audio #4
  95. ID                             : 4355 (0x1103)
  96. Menu ID                        : 1 (0x1)
  97. Format                         : AC-3
  98. Format/Info                    : Audio Coding 3
  99. Commercial name                : Dolby Digital
  100. Codec ID                       : 129
  101. Duration                       : 1 h 40 min
  102. Bit rate mode                  : Constant
  103. Bit rate                       : 224 kb/s
  104. Channel(s)                     : 2 channels
  105. Channel layout                 : L R
  106. Sampling rate                  : 48.0 kHz
  107. Frame rate                     : 31.250 FPS (1536 SPF)
  108. Bit depth                      : 16 bits
  109. Compression mode               : Lossy
  110. Stream size                    : 160 MiB (1%)
  111. Language                       : Chinese (陆配国语小叮当版)
  112. Service kind                   : Complete Main

  113. Audio #5
  114. ID                             : 4356 (0x1104)
  115. Menu ID                        : 1 (0x1)
  116. Format                         : AC-3
  117. Format/Info                    : Audio Coding 3
  118. Commercial name                : Dolby Digital
  119. Codec ID                       : 129
  120. Duration                       : 1 h 40 min
  121. Bit rate mode                  : Constant
  122. Bit rate                       : 192 kb/s
  123. Channel(s)                     : 2 channels
  124. Channel layout                 : L R
  125. Sampling rate                  : 48.0 kHz
  126. Frame rate                     : 31.250 FPS (1536 SPF)
  127. Bit depth                      : 16 bits
  128. Compression mode               : Lossy
  129. Stream size                    : 137 MiB (1%)
  130. Language                       : Chinese (粤配叮当版)
  131. Service kind                   : Complete Main

  132. Audio #6
  133. ID                             : 4357 (0x1105)
  134. Menu ID                        : 1 (0x1)
  135. Format                         : AC-3
  136. Format/Info                    : Audio Coding 3
  137. Commercial name                : Dolby Digital
  138. Codec ID                       : 129
  139. Duration                       : 1 h 40 min
  140. Bit rate mode                  : Constant
  141. Bit rate                       : 192 kb/s
  142. Channel(s)                     : 2 channels
  143. Channel layout                 : L R
  144. Sampling rate                  : 48.0 kHz
  145. Frame rate                     : 31.250 FPS (1536 SPF)
  146. Bit depth                      : 16 bits
  147. Compression mode               : Lossy
  148. Stream size                    : 137 MiB (1%)
  149. Language                       : Chinese (粤配多啦A梦版)
  150. Service kind                   : Complete Main

  151. Audio #7
  152. ID                             : 4358 (0x1106)
  153. Menu ID                        : 1 (0x1)
  154. Format                         : AC-3
  155. Format/Info                    : Audio Coding 3
  156. Commercial name                : Dolby Digital
  157. Codec ID                       : 129
  158. Duration                       : 1 h 40 min
  159. Bit rate mode                  : Constant
  160. Bit rate                       : 192 kb/s
  161. Channel(s)                     : 2 channels
  162. Channel layout                 : L R
  163. Sampling rate                  : 48.0 kHz
  164. Frame rate                     : 31.250 FPS (1536 SPF)
  165. Bit depth                      : 16 bits
  166. Compression mode               : Lossy
  167. Stream size                    : 137 MiB (1%)
  168. Language                       : Chinese (台湾客家话)
  169. Service kind                   : Complete Main
复制代码

购买主题 已有 15 人购买  本主题需向作者支付 5 雪点 才能浏览
飘雪动漫社★缤纷动漫☆创意未来!

签到天数: 198 天

[LV.7]常住居民III

6

主题

0

好友

1693

积分

风之精灵LV.1

Rank: 8Rank: 8Rank: 8Rank: 8

帖子
1653
雪点
254
阅读权限
70
性别
保密
在线时间
160 小时
注册时间
2018-9-29
最后登录
2019-8-25
发表于 2019-4-2 01:27:51 | 显示全部楼层
台配音轨 还分叮当版和哆啦A梦版?? 有什么区别吗
飘雪动漫社★缤纷动漫☆创意未来!
回复 支持 反对

使用道具 举报

签到天数: 165 天

[LV.7]常住居民III

13

主题

1

好友

189

积分

水之精灵LV.3

Rank: 4Rank: 4

帖子
61
雪点
1330
阅读权限
30
性别
在线时间
61 小时
注册时间
2015-11-27
最后登录
2019-8-11
 楼主| 发表于 2019-4-2 01:30:03 | 显示全部楼层
Negro 发表于 2019-4-2 01:27
台配音轨 还分叮当版和哆啦A梦版?? 有什么区别吗

哆啦A梦是重译版,小叮当是早期的译名,后来遵从原作者的遗愿全世界统一译名,就是现在叫的哆啦A梦。
飘雪动漫社★缤纷动漫☆创意未来!
回复 支持 反对

使用道具 举报

签到天数: 198 天

[LV.7]常住居民III

6

主题

0

好友

1693

积分

风之精灵LV.1

Rank: 8Rank: 8Rank: 8Rank: 8

帖子
1653
雪点
254
阅读权限
70
性别
保密
在线时间
160 小时
注册时间
2018-9-29
最后登录
2019-8-25
发表于 2019-4-2 01:30:42 | 显示全部楼层
發葛 发表于 2019-4-2 01:30
哆啦A梦是重译版,小叮当是早期的译名,后来遵从原作者的遗愿全世界统一译名,就是现在叫的哆啦A梦。

知道了,谢谢科普。  
飘雪动漫社★缤纷动漫☆创意未来!
回复 支持 反对

使用道具 举报

签到天数: 1777 天

[LV.Master]伴坛终老

547

主题

57

好友

11万

积分

精灵王

Rank: 17Rank: 17Rank: 17Rank: 17Rank: 17

帖子
94756
雪点
299041
阅读权限
130
在线时间
11450 小时
注册时间
2014-5-26
最后登录
2019-8-25
发表于 2019-4-2 02:03:41 | 显示全部楼层
感謝樓主分享呢一個版本嘅哆啦A夢電影
回复 支持 反对

使用道具 举报

签到天数: 634 天

[LV.9]以坛为家II

16

主题

0

好友

3473

积分

风之精灵LV.2

Rank: 13Rank: 13Rank: 13

帖子
2948
雪点
6213
阅读权限
80
在线时间
1420 小时
注册时间
2017-9-14
最后登录
2019-8-25
发表于 2019-4-2 04:08:09 | 显示全部楼层
多謝製作叮噹高清版
飘雪动漫社★缤纷动漫☆创意未来!
回复 支持 反对

使用道具 举报

签到天数: 1296 天

[LV.10]以坛为家III

18

主题

13

好友

5341

积分

风之精灵LV.2

Rank: 13Rank: 13Rank: 13

帖子
4499
雪点
10104
阅读权限
80
性别
在线时间
1265 小时
注册时间
2014-11-6
最后登录
2019-8-25

捐助会员

发表于 2019-4-2 09:20:13 | 显示全部楼层
终于等到楼主更新了~~~~动物惑星也是很好看的一部····谢谢分享
回复 支持 反对

使用道具 举报

签到天数: 1739 天

[LV.Master]伴坛终老

0

主题

0

好友

2479

积分

风之精灵LV.1

Rank: 8Rank: 8Rank: 8Rank: 8

帖子
1634
雪点
10755
阅读权限
70
性别
保密
在线时间
1394 小时
注册时间
2012-7-22
最后登录
2019-8-25
发表于 2019-4-2 09:35:55 | 显示全部楼层
下來看看先,多謝!!!!!
飘雪动漫社★缤纷动漫☆创意未来!
回复 支持 反对

使用道具 举报

签到天数: 1680 天

[LV.Master]伴坛终老

6

主题

0

好友

2794

积分

风之精灵LV.1

Rank: 8Rank: 8Rank: 8Rank: 8

帖子
1030
雪点
19451
阅读权限
70
性别
保密
在线时间
1079 小时
注册时间
2014-1-30
最后登录
2019-8-25

捐助会员哈比夏露露

发表于 2019-4-2 09:41:46 | 显示全部楼层
如有字幕就更加完美了;多謝樓主無私分享
飘雪动漫社★缤纷动漫☆创意未来!
回复 支持 反对

使用道具 举报

签到天数: 1357 天

[LV.10]以坛为家III

6

主题

0

好友

3422

积分

风之精灵LV.2

Rank: 13Rank: 13Rank: 13

帖子
3076
雪点
4069
阅读权限
80
性别
在线时间
719 小时
注册时间
2015-4-28
最后登录
2019-8-25
发表于 2019-4-2 09:50:17 | 显示全部楼层
叮噹版的配音, 必須要收藏
謝謝
飘雪动漫社★缤纷动漫☆创意未来!
回复 支持 反对

使用道具 举报

您需要登录后才可以回帖 登录 | 立即注册

本版积分规则

下载客户端
安卓客户端 IOS客户端

快来加入我们吧!!

官方QQ群号

飘雪动漫社

Powered by Discuz! X3.4© 2001-2019 Comsenz Inc.

手机版| 小黑屋| Archiver| 粤梦缘

GMT+8, 2019-8-25 20:21 , Processed in 0.126785 second(s), 41 queries , MemCache On.