找回密码
 立即注册
快捷导航
发帖
飘盘 聊天 资讯 萌图 漫画 动画 规则 帮助 手机客户端 新手指南
查看: 532|回复: 32

[粤语动画] [哆啦A梦剧场版1991:大雄的天方夜谭][1080i/HDTV/TS/国粤客日六语/15.29GB]

  [复制链接]

签到天数: 166 天

[LV.7]常住居民III

14

主题

1

好友

197

积分

水之精灵LV.3

Rank: 4Rank: 4

帖子
62
雪点
1407
阅读权限
30
性别
在线时间
63 小时
注册时间
2015-11-27
最后登录
2019-10-7
发表于 2019-8-2 01:16:05 | 显示全部楼层 |阅读模式
本帖最后由 發葛 于 2019-8-2 01:16 编辑
‍‍片源由a574045075提供,在此感谢!
台配国语音轨(小叮当版)、粤语音轨(叮当版)提取自VCD,台配国语音轨(哆啦A梦版)、粤语音轨(多啦A梦版)提取自DVD,台湾客家话音轨取自台湾客语频道源码,已做调制匹配高清重制版。
如需转载,请注明出处!‍‍

◎译  名 哆啦A梦:大雄的阿拉伯之夜 / Doraemon: Nobita in Dorabian Nights / Doraemon: Nobita no Arabian naito / 大雄的一千零一夜 / 大雄的天方夜谭
◎片  名 ドラえもん のび太のドラビアンナイト
◎年  代 1991
◎产  地 日本
◎类  别 科幻 / 动画 / 冒险
◎语  言 日语
◎上映日期 1991-03-09(日本)
◎IMDb评分  7.0/10 from 217 users
◎IMDb链接  http://www.imdb.com/title/tt1147508
◎豆瓣评分 8.5/10 from 3288 users
◎豆瓣链接 https://movie.douban.com/subject/1458899/
◎片  长 100分钟
◎导  演 芝山努 Tsutomu Shibayama
◎编  剧 藤子・F・不二雄 F. Fujio Fujiko
◎主  演 大山信代 Nobuyo Ohyama
       小原乃梨子 Noriko Ohara
       野村道子 Michiko Nomura
       立壁和也 Kazuya Tatekabe
       肝付兼太 Kaneta Kimotsuki

◎简  介  

  哆啦A梦(大山信代 配音)拿出了一个可以进入连环画的鞋子,大家跳进连环画玩,可是静香(野村道子 配音)丢了一只鞋子,没有回来。而连环画被大雄的妈妈烧毁了。于是,大家必须去古代的阿拉伯,寻找童话与现实有衔接的地方,找寻静香的下落。静香是被奴隶贩子拐走了,而大家先是遭遇四十大盗,哆啦A梦的口袋也被偷了,然后大家在海上遭遇暴风雨,拣回一条命被冲到了大沙漠,只能在一望无际的沙漠里艰辛的寻找静香的下落。沙漠里,大家经受着常人无法忍受的困难,大雄严重中暑昏迷,小夫屡屡看到幻像。他们后来发现了一个黄金宫,国王是《一千零一夜》里的风云人物水手辛伯达,他有着大魔神,神灯,飞毯等许多不可思议的,只会出现在《一千零一夜》童话故事里的道具。他为什么会有这些东西?面对想抢夺黄金宫的奴隶贩子和四十大盗,大雄一行人将如何化险为夷……





  1. General
  2. ID                          : 1 (0x1)
  3. Complete name               : J:\Doraemon Nobita‘s Dorabian Nights 1991 HDTV 1080i MPEG-2 6Audio-doraemon.ts
  4. Format                      : MPEG-TS
  5. File size                   : 15.3 GiB
  6. Duration                    : 1 h 39 min
  7. Overall bit rate mode       : Variable
  8. Overall bit rate            : 21.9 Mb/s
  9. Maximum Overall bit rate    : 35.5 Mb/s

  10. Video
  11. ID                          : 4113 (0x1011)
  12. Menu ID                     : 1 (0x1)
  13. Format                      : MPEG Video
  14. Format version              : Version 2
  15. Format profile              : Main@High
  16. Format settings             : CustomMatrix / BVOP
  17. Format settings, BVOP       : Yes
  18. Format settings, Matrix     : Custom
  19. Format settings, GOP        : Variable
  20. Format settings, picture st : Frame
  21. Codec ID                    : 2
  22. Duration                    : 1 h 39 min
  23. Bit rate mode               : Variable
  24. Width                       : 1 920 pixels
  25. Height                      : 1 080 pixels
  26. Display aspect ratio        : 16:9
  27. Frame rate                  : 29.970 (30000/1001) FPS
  28. Color space                 : YUV
  29. Chroma subsampling          : 4:2:0
  30. Bit depth                   : 8 bits
  31. Scan type                   : Interlaced
  32. Scan order                  : Top Field First
  33. Compression mode            : Lossy
  34. Time code of first frame    : 00:00:00:00
  35. Time code source            : Group of pictures header
  36. GOP, Open/Closed            : Open
  37. Color primaries             : BT.709
  38. Transfer characteristics    : BT.709
  39. Matrix coefficients         : BT.709

  40. Audio #1
  41. ID                          : 4352 (0x1100)
  42. Menu ID                     : 1 (0x1)
  43. Format                      : AAC LC
  44. Format/Info                 : Advanced Audio Codec Low Complexity
  45. Format version              : Version 2
  46. Muxing mode                 : ADTS
  47. Codec ID                    : 15-2
  48. Duration                    : 1 h 39 min
  49. Bit rate mode               : Variable
  50. Channel(s)                  : 2 channels
  51. Channel layout              : L R
  52. Sampling rate               : 48.0 kHz
  53. Frame rate                  : 46.875 FPS (1024 SPF)
  54. Compression mode            : Lossy
  55. Language                    : Japanese

  56. Audio #2
  57. ID                          : 4353 (0x1101)
  58. Menu ID                     : 1 (0x1)
  59. Format                      : AC-3
  60. Format/Info                 : Audio Coding 3
  61. Commercial name             : Dolby Digital
  62. Codec ID                    : 129
  63. Duration                    : 1 h 39 min
  64. Bit rate mode               : Constant
  65. Bit rate                    : 384 kb/s
  66. Channel(s)                  : 2 channels
  67. Channel layout              : L R
  68. Sampling rate               : 48.0 kHz
  69. Frame rate                  : 31.250 FPS (1536 SPF)
  70. Bit depth                   : 16 bits
  71. Compression mode            : Lossy
  72. Stream size                 : 274 MiB (2%)
  73. Language                    : Chinese (台配国语哆啦A梦版)
  74. Service kind                : Complete Main

  75. Audio #3
  76. ID                          : 4354 (0x1102)
  77. Menu ID                     : 1 (0x1)
  78. Format                      : AC-3
  79. Format/Info                 : Audio Coding 3
  80. Commercial name             : Dolby Digital
  81. Codec ID                    : 129
  82. Duration                    : 1 h 39 min
  83. Bit rate mode               : Constant
  84. Bit rate                    : 224 kb/s
  85. Channel(s)                  : 2 channels
  86. Channel layout              : L R
  87. Sampling rate               : 48.0 kHz
  88. Frame rate                  : 31.250 FPS (1536 SPF)
  89. Bit depth                   : 16 bits
  90. Compression mode            : Lossy
  91. Stream size                 : 160 MiB (1%)
  92. Language                    : Chinese (台配国语小叮当版)
  93. Service kind                : Complete Main

  94. Audio #4
  95. ID                          : 4355 (0x1103)
  96. Menu ID                     : 1 (0x1)
  97. Format                      : AC-3
  98. Format/Info                 : Audio Coding 3
  99. Commercial name             : Dolby Digital
  100. Codec ID                    : 129
  101. Duration                    : 1 h 39 min
  102. Bit rate mode               : Constant
  103. Bit rate                    : 192 kb/s
  104. Channel(s)                  : 2 channels
  105. Channel layout              : L R
  106. Sampling rate               : 48.0 kHz
  107. Frame rate                  : 31.250 FPS (1536 SPF)
  108. Bit depth                   : 16 bits
  109. Compression mode            : Lossy
  110. Stream size                 : 137 MiB (1%)
  111. Language                    : Chinese (粤配多啦A梦版)
  112. Service kind                : Complete Main

  113. Audio #5
  114. ID                          : 4356 (0x1104)
  115. Menu ID                     : 1 (0x1)
  116. Format                      : AC-3
  117. Format/Info                 : Audio Coding 3
  118. Commercial name             : Dolby Digital
  119. Codec ID                    : 129
  120. Duration                    : 1 h 39 min
  121. Bit rate mode               : Constant
  122. Bit rate                    : 224 kb/s
  123. Channel(s)                  : 2 channels
  124. Channel layout              : L R
  125. Sampling rate               : 48.0 kHz
  126. Frame rate                  : 31.250 FPS (1536 SPF)
  127. Bit depth                   : 16 bits
  128. Compression mode            : Lossy
  129. Stream size                 : 160 MiB (1%)
  130. Language                    : Chinese (粤配叮当版)
  131. Service kind                : Complete Main

  132. Audio #6
  133. ID                          : 4357 (0x1105)
  134. Menu ID                     : 1 (0x1)
  135. Format                      : AC-3
  136. Format/Info                 : Audio Coding 3
  137. Commercial name             : Dolby Digital
  138. Codec ID                    : 129
  139. Duration                    : 1 h 39 min
  140. Bit rate mode               : Constant
  141. Bit rate                    : 192 kb/s
  142. Channel(s)                  : 2 channels
  143. Channel layout              : L R
  144. Sampling rate               : 48.0 kHz
  145. Frame rate                  : 31.250 FPS (1536 SPF)
  146. Bit depth                   : 16 bits
  147. Compression mode            : Lossy
  148. Stream size                 : 137 MiB (1%)
  149. Language                    : Chinese (台湾客家话)
  150. Service kind                : Complete Main
复制代码
游客,如果您要查看本帖隐藏内容请回复

本帖子中包含更多资源

您需要 登录 才可以下载或查看,没有帐号?立即注册

x

点评

轉載不可收費  发表于 2019-8-2 08:34

评分

参与人数 1冰点 +3 雪点 +100 收起 理由
wai008 + 3 + 100 原创合成内容

查看全部评分

飘雪动漫社★缤纷动漫☆创意未来!

签到天数: 1339 天

[LV.10]以坛为家III

18

主题

13

好友

5412

积分

风之精灵LV.2

Rank: 13Rank: 13Rank: 13

帖子
4520
雪点
10735
阅读权限
80
性别
在线时间
1275 小时
注册时间
2014-11-6
最后登录
2019-10-16

捐助会员

发表于 2019-8-2 09:14:38 | 显示全部楼层
以前的剧场版真的无法超越,还是旧的最经典,谢谢楼主分享~~~~
回复 支持 反对

使用道具 举报

签到天数: 331 天

[LV.8]以坛为家I

3

主题

0

好友

952

积分

土之精灵LV.3

Rank: 7Rank: 7Rank: 7

帖子
517
雪点
5128
阅读权限
60
性别
保密
在线时间
105 小时
注册时间
2018-11-20
最后登录
2019-10-16
发表于 2019-8-2 10:10:25 | 显示全部楼层
廣東話配音都有兩個版本,真喺好足料,Thank you very much
飘雪动漫社★缤纷动漫☆创意未来!
回复 支持 反对

使用道具 举报

签到天数: 76 天

[LV.6]常住居民II

1

主题

0

好友

175

积分

水之精灵LV.3

Rank: 4Rank: 4

帖子
56
雪点
1110
阅读权限
30
在线时间
50 小时
注册时间
2018-9-30
最后登录
2019-10-13
发表于 2019-8-2 10:20:23 | 显示全部楼层
廣東話配音好评
飘雪动漫社★缤纷动漫☆创意未来!
回复 支持 反对

使用道具 举报

签到天数: 948 天

[LV.10]以坛为家III

13

主题

3

好友

3599

积分

风之精灵LV.2

Rank: 13Rank: 13Rank: 13

帖子
3461
雪点
1694
阅读权限
80
性别
在线时间
908 小时
注册时间
2013-5-7
最后登录
2019-10-16
发表于 2019-8-2 11:08:52 | 显示全部楼层
这部超长篇漫画我翻看过最多次,最喜欢这故事了。
飘雪动漫社★缤纷动漫☆创意未来!
回复 支持 反对

使用道具 举报

签到天数: 2150 天

[LV.Master]伴坛终老

28

主题

5

好友

1万

积分

炎之精灵LV.2

Rank: 17Rank: 17Rank: 17Rank: 17Rank: 17

帖子
19211
雪点
2386
阅读权限
110
在线时间
3452 小时
注册时间
2013-3-22
最后登录
2019-10-16
发表于 2019-8-2 12:35:03 | 显示全部楼层
冇TVB音轨?
回复 支持 反对

使用道具 举报

签到天数: 83 天

[LV.6]常住居民II

170

主题

70

好友

7796

积分

版主

Rank: 23Rank: 23Rank: 23Rank: 23Rank: 23

帖子
5927
雪点
14311
阅读权限
200
在线时间
7150 小时
注册时间
2012-5-19
最后登录
2019-10-16

哈比夏露露松前緒花松前緒花水の人鱼森島遙基路仔初音未来安城鸣子Shiny Gift西雅爾·法多姆海貝L彭格列黑手党夢想の的愛~靈犀侵略!乌贼娘Haru櫻乃★丶悪魔の白娅骑士王Saber巡音露卡坂田銀時神樂志村新八定春桂小太郎见崎鸣梦想の的爱~初衷みほの梦想春风千樱绫崎飒波波朝风理沙花菱美希瀨川泉艾尔凡斯.艾力克莱.马斯丹赤司征十郎紫原敦黄濑凉太绿间真太郎藤林椋だんご大家族乔巴阪本先生

发表于 2019-8-2 13:00:35 | 显示全部楼层
系米ttx都有呢个版本?
出关了,发现有死档,欢迎pm,有货会补档
回复 支持 反对

使用道具 举报

签到天数: 2462 天

[LV.Master]伴坛终老

9

主题

11

好友

5698

积分

风之精灵LV.2

波斯肥仔

Rank: 13Rank: 13Rank: 13

帖子
3312
雪点
26324
阅读权限
80
性别
保密
在线时间
2005 小时
注册时间
2012-8-26
最后登录
2019-10-16

捐助会员

发表于 2019-8-2 13:12:01 | 显示全部楼层
咁犀利连客家话都有啊,多谢楼主分享
回复 支持 反对

使用道具 举报

签到天数: 226 天

[LV.7]常住居民III

3

主题

0

好友

1167

积分

土之精灵LV.3

Rank: 7Rank: 7Rank: 7

帖子
579
雪点
6972
阅读权限
60
性别
保密
在线时间
90 小时
注册时间
2019-2-2
最后登录
2019-10-16
发表于 2019-8-2 13:30:31 | 显示全部楼层 来自安卓客户端来自安卓客户端
多謝樓主
飘雪动漫社★缤纷动漫☆创意未来!
回复 支持 反对

使用道具 举报

签到天数: 261 天

[LV.8]以坛为家I

1

主题

0

好友

1375

积分

土之精灵LV.3

Rank: 7Rank: 7Rank: 7

帖子
869
雪点
6077
阅读权限
60
性别
保密
在线时间
212 小时
注册时间
2019-1-23
最后登录
2019-10-16
发表于 2019-8-2 16:18:52 | 显示全部楼层 来自安卓客户端来自安卓客户端
高清版真不错
飘雪动漫社★缤纷动漫☆创意未来!
回复 支持 反对

使用道具 举报

您需要登录后才可以回帖 登录 | 立即注册

本版积分规则

下载客户端
安卓客户端 IOS客户端

快来加入我们吧!!

官方QQ群号

飘雪动漫社

Powered by Discuz! X3.4© 2001-2019 Comsenz Inc.

手机版| 小黑屋| Archiver| 粤梦缘

GMT+8, 2019-10-16 18:48 , Processed in 0.111165 second(s), 39 queries , MemCache On.