找回密码
 立即注册
快捷导航
发帖
飘盘 聊天 资讯 萌图 漫画 动画 规则 帮助 手机客户端 新手指南
查看: 235|回复: 34

[粤语动画] [原创][哆啦A梦剧场版1993:哆啦A梦:大雄与白金迷宫][1080i/HDTV/TS/国粤客日六语]

  [复制链接]

签到天数: 169 天

[LV.7]常住居民III

15

主题

1

好友

205

积分

土之精灵LV.1

Rank: 5Rank: 5Rank: 5

帖子
64
雪点
1468
阅读权限
40
性别
在线时间
65 小时
注册时间
2015-11-27
最后登录
2019-11-9
发表于 2019-10-26 23:17:47 | 显示全部楼层 |阅读模式
片源由a574045075提供,在此感谢!
陆配国语音轨(小叮当版)、粤语音轨(叮当版)提取自VCD,台配国语音轨(哆啦A梦版)、粤语音轨(多啦A梦版)提取自DVD,台湾客家话音轨取自台湾客语频道源码,已做调制匹配高清重制版。
如需转载,请注明出处!


◎译  名 哆啦A梦:大雄与白金迷宫 / Doraemon: Nobita to Buriki no rabirinsu
◎片  名 ドラえもん のび太とブリキの迷宮
◎年  代 1993
◎产  地 日本
◎类  别 科幻 / 动画 / 冒险
◎语  言 日语
◎上映日期 1993-03-06(日本)
◎IMDb评分  6.8/10 from 141 users
◎IMDb链接  https://www.imdb.com/title/tt1147521
◎豆瓣评分 8.4/10 from 3205 users
◎豆瓣链接 https://movie.douban.com/subject/1458901/
◎片  长 100分钟
◎导  演 芝山努 Tsutomu Shibayama
◎编  剧 藤子 · F · 不二雄 F. Fujio Fujiko
◎主  演 大山信代 Nobuyo Ohyama
       小原乃梨子 Noriko Ohara
       立壁和也 Kazuya Tatekabe
       肝付兼太 Kaneta Kimotsuki
       野村道子 Michiko Nomura

◎简  介  

  春假来临,大雄的爸爸从午夜电视里放送的神秘广告中得知白金饭店的存在,那里环境优美,四季如春,远处的雪山则常年积雪,是度假的绝佳之选。但是这个胜地究竟在何方却无从得知,朋友们都认为大雄在吹牛。正当他倍感失望打算离家出走的时候,一个神秘的手提箱送到野比家。通过这个箱子,大雄和哆啦A梦来到了白金小岛。
  在这个罕无人迹全自动化的小岛上,大雄他们尽情玩耍,然而不久后哆啦A梦却离奇失踪。隐藏在这个小岛背后的秘密由此慢慢揭开……





  1. General
  2. ID                          : 1 (0x1)
  3. Complete name               : J:\Doraemon: Nobita and the Tin Labyrinth 1993 HDTV 1080i MPEG-2 6Audio-doraemon.ts
  4. Format                      : MPEG-TS
  5. File size                   : 15.3 GiB
  6. Duration                    : 1 h 40 min
  7. Overall bit rate mode       : Variable
  8. Overall bit rate            : 21.8 Mb/s
  9. Maximum Overall bit rate    : 35.5 Mb/s

  10. Video
  11. ID                          : 4113 (0x1011)
  12. Menu ID                     : 1 (0x1)
  13. Format                      : MPEG Video
  14. Format version              : Version 2
  15. Format profile              : Main@High
  16. Format settings             : CustomMatrix / BVOP
  17. Format settings, BVOP       : Yes
  18. Format settings, Matrix     : Custom
  19. Format settings, GOP        : Variable
  20. Format settings, picture st : Frame
  21. Codec ID                    : 2
  22. Duration                    : 1 h 40 min
  23. Bit rate mode               : Variable
  24. Width                       : 1 920 pixels
  25. Height                      : 1 080 pixels
  26. Display aspect ratio        : 16:9
  27. Frame rate                  : 29.970 (30000/1001) FPS
  28. Color space                 : YUV
  29. Chroma subsampling          : 4:2:0
  30. Bit depth                   : 8 bits
  31. Scan type                   : Interlaced
  32. Scan order                  : Top Field First
  33. Compression mode            : Lossy
  34. Time code of first frame    : 00:00:00:00
  35. Time code source            : Group of pictures header
  36. GOP, Open/Closed            : Open
  37. Color primaries             : BT.709
  38. Transfer characteristics    : BT.709
  39. Matrix coefficients         : BT.709

  40. Audio #1
  41. ID                          : 4352 (0x1100)
  42. Menu ID                     : 1 (0x1)
  43. Format                      : AAC LC
  44. Format/Info                 : Advanced Audio Codec Low Complexity
  45. Format version              : Version 2
  46. Muxing mode                 : ADTS
  47. Codec ID                    : 15-2
  48. Duration                    : 1 h 40 min
  49. Channel(s)                  : 2 channels
  50. Channel layout              : L R
  51. Sampling rate               : 48.0 kHz
  52. Frame rate                  : 46.875 FPS (1024 SPF)
  53. Compression mode            : Lossy
  54. Language                    : Japanese

  55. Audio #2
  56. ID                          : 4353 (0x1101)
  57. Menu ID                     : 1 (0x1)
  58. Format                      : AC-3
  59. Format/Info                 : Audio Coding 3
  60. Commercial name             : Dolby Digital
  61. Codec ID                    : 129
  62. Duration                    : 1 h 40 min
  63. Bit rate mode               : Constant
  64. Bit rate                    : 384 kb/s
  65. Channel(s)                  : 2 channels
  66. Channel layout              : L R
  67. Sampling rate               : 48.0 kHz
  68. Frame rate                  : 31.250 FPS (1536 SPF)
  69. Bit depth                   : 16 bits
  70. Compression mode            : Lossy
  71. Stream size                 : 275 MiB (2%)
  72. Language                    : Chinese (台配国语哆啦A梦版)
  73. Service kind                : Complete Main

  74. Audio #3
  75. ID                          : 4354 (0x1102)
  76. Menu ID                     : 1 (0x1)
  77. Format                      : AC-3
  78. Format/Info                 : Audio Coding 3
  79. Commercial name             : Dolby Digital
  80. Codec ID                    : 129
  81. Duration                    : 1 h 40 min
  82. Bit rate mode               : Constant
  83. Bit rate                    : 224 kb/s
  84. Channel(s)                  : 2 channels
  85. Channel layout              : L R
  86. Sampling rate               : 48.0 kHz
  87. Frame rate                  : 31.250 FPS (1536 SPF)
  88. Bit depth                   : 16 bits
  89. Compression mode            : Lossy
  90. Stream size                 : 161 MiB (1%)
  91. Language                    : Chinese (陆配国语小叮当版)
  92. Service kind                : Complete Main

  93. Audio #4
  94. ID                          : 4355 (0x1103)
  95. Menu ID                     : 1 (0x1)
  96. Format                      : AC-3
  97. Format/Info                 : Audio Coding 3
  98. Commercial name             : Dolby Digital
  99. Codec ID                    : 129
  100. Duration                    : 1 h 40 min
  101. Bit rate mode               : Constant
  102. Bit rate                    : 192 kb/s
  103. Channel(s)                  : 2 channels
  104. Channel layout              : L R
  105. Sampling rate               : 48.0 kHz
  106. Frame rate                  : 31.250 FPS (1536 SPF)
  107. Bit depth                   : 16 bits
  108. Compression mode            : Lossy
  109. Stream size                 : 138 MiB (1%)
  110. Language                    : Chinese (粤配多啦A梦版)
  111. Service kind                : Complete Main

  112. Audio #5
  113. ID                          : 4356 (0x1104)
  114. Menu ID                     : 1 (0x1)
  115. Format                      : AC-3
  116. Format/Info                 : Audio Coding 3
  117. Commercial name             : Dolby Digital
  118. Codec ID                    : 129
  119. Duration                    : 1 h 40 min
  120. Bit rate mode               : Constant
  121. Bit rate                    : 192 kb/s
  122. Channel(s)                  : 2 channels
  123. Channel layout              : L R
  124. Sampling rate               : 48.0 kHz
  125. Frame rate                  : 31.250 FPS (1536 SPF)
  126. Bit depth                   : 16 bits
  127. Compression mode            : Lossy
  128. Stream size                 : 138 MiB (1%)
  129. Language                    : Chinese (粤配叮当版)
  130. Service kind                : Complete Main

  131. Audio #6
  132. ID                          : 4357 (0x1105)
  133. Menu ID                     : 1 (0x1)
  134. Format                      : AC-3
  135. Format/Info                 : Audio Coding 3
  136. Commercial name             : Dolby Digital
  137. Codec ID                    : 129
  138. Duration                    : 1 h 40 min
  139. Bit rate mode               : Constant
  140. Bit rate                    : 192 kb/s
  141. Channel(s)                  : 2 channels
  142. Channel layout              : L R
  143. Sampling rate               : 48.0 kHz
  144. Frame rate                  : 31.250 FPS (1536 SPF)
  145. Bit depth                   : 16 bits
  146. Compression mode            : Lossy
  147. Stream size                 : 138 MiB (1%)
  148. Language                    : Chinese (台湾客家话)
  149. Service kind                : Complete Main
复制代码
游客,如果您要查看本帖隐藏内容请回复

本帖子中包含更多资源

您需要 登录 才可以下载或查看,没有帐号?立即注册

x
飘雪动漫社★缤纷动漫☆创意未来!

签到天数: 797 天

[LV.10]以坛为家III

11

主题

2

好友

1491

积分

土之精灵LV.3

小弟

Rank: 7Rank: 7Rank: 7

帖子
1395
雪点
1186
阅读权限
60
性别
在线时间
653 小时
注册时间
2012-9-8
最后登录
2019-11-17
发表于 2019-10-26 23:49:26 | 显示全部楼层
thanks for your share!! no.1
別人笑我太瘋癲,我笑他們看不穿
回复 支持 反对

使用道具 举报

签到天数: 28 天

[LV.4]偶尔看看III

126

主题

4

好友

2993

积分

风之精灵LV.1

粤语动画拾荒者

Rank: 8Rank: 8Rank: 8Rank: 8

帖子
2593
雪点
2923
阅读权限
70
性别
在线时间
777 小时
注册时间
2012-8-21
最后登录
2019-11-19
发表于 2019-10-27 00:02:30 | 显示全部楼层
竟然壓16比9  無懷舊感。  哎,之前邊個邊個 果個合集白金迷宮好似無粵配,睇下系米先,再來補。
粤语是我的收藏标的!!
回复 支持 反对

使用道具 举报

签到天数: 30 天

[LV.5]常住居民I

1

主题

0

好友

533

积分

土之精灵LV.2

Rank: 6Rank: 6

帖子
411
雪点
1153
阅读权限
50
性别
在线时间
47 小时
注册时间
2019-10-21
最后登录
2019-11-19
发表于 2019-10-27 00:03:16 | 显示全部楼层
經典動畫,支持一下!!
飘雪动漫社★缤纷动漫☆创意未来!
回复 支持 反对

使用道具 举报

签到天数: 1229 天

[LV.10]以坛为家III

2

主题

0

好友

1992

积分

风之精灵LV.1

黑龍

Rank: 8Rank: 8Rank: 8Rank: 8

帖子
393
雪点
19541
阅读权限
70
在线时间
372 小时
注册时间
2014-2-23
最后登录
2019-11-19
发表于 2019-10-27 01:15:54 | 显示全部楼层
嘩!正!高清版本,多謝分享!
飘雪动漫社★缤纷动漫☆创意未来!
回复 支持 反对

使用道具 举报

签到天数: 1863 天

[LV.Master]伴坛终老

571

主题

57

好友

10万

积分

精灵王

Rank: 17Rank: 17Rank: 17Rank: 17Rank: 17

帖子
98942
雪点
5926
阅读权限
130
在线时间
11934 小时
注册时间
2014-5-26
最后登录
2019-11-19
发表于 2019-10-27 02:08:20 | 显示全部楼层
辛苦,多謝曬分享舊版哆啦A夢電影
回复 支持 反对

使用道具 举报

签到天数: 986 天

[LV.10]以坛为家III

70

主题

0

好友

3284

积分

风之精灵LV.2

Rank: 13Rank: 13Rank: 13

帖子
3144
雪点
957
阅读权限
80
性别
在线时间
1492 小时
注册时间
2012-6-4
最后登录
2019-11-19
发表于 2019-10-27 04:12:41 | 显示全部楼层
依套劇場版我細個睇咗好多次
回复 支持 反对

使用道具 举报

签到天数: 35 天

[LV.5]常住居民I

1

主题

0

好友

506

积分

土之精灵LV.2

Rank: 6Rank: 6

帖子
365
雪点
1386
阅读权限
50
性别
在线时间
31 小时
注册时间
2019-10-15
最后登录
2019-11-19
发表于 2019-10-27 05:06:46 | 显示全部楼层 来自安卓客户端来自安卓客户端
感謝分享多種配音版本。
飘雪动漫社★缤纷动漫☆创意未来!
回复 支持 反对

使用道具 举报

签到天数: 1709 天

[LV.Master]伴坛终老

9

主题

21

好友

5万

积分

精灵王

Rank: 17Rank: 17Rank: 17Rank: 17Rank: 17

帖子
57123
雪点
28206
阅读权限
130
性别
在线时间
2311 小时
注册时间
2014-12-1
最后登录
2019-11-19
发表于 2019-10-27 07:14:16 | 显示全部楼层
六語版...勁喎....辛苦了啊....
......
回复 支持 反对

使用道具 举报

签到天数: 1522 天

[LV.Master]伴坛终老

 成长值: 7965

203

主题

5

好友

1万

积分

贵宾

Rank: 25Rank: 25Rank: 25Rank: 25Rank: 25

帖子
3405
雪点
86556
阅读权限
150
性别
保密
在线时间
2601 小时
注册时间
2014-6-6
最后登录
2019-11-19
发表于 2019-10-27 08:29:04 | 显示全部楼层
多谢分享哆啦A梦经典剧场版
飘雪动漫社★缤纷动漫☆创意未来!
回复 支持 反对

使用道具 举报

您需要登录后才可以回帖 登录 | 立即注册

本版积分规则

下载客户端
安卓客户端 IOS客户端

快来加入我们吧!!

官方QQ群号

飘雪动漫社

Powered by Discuz! X3.4© 2001-2019 Comsenz Inc.

手机版| 小黑屋| Archiver| 粤梦缘

GMT+8, 2019-11-19 16:54 , Processed in 0.111770 second(s), 38 queries , MemCache On.