返回顶部
大家都在看
相关推荐

[高清电影] [原創 小屁孩日记 Diary of a Wimpy Kid (2021) [普通话+台配+粤语].mkv

  [复制链接]

签到天数: 243 天

[LV.8]以坛为家I

14

主题

1

好友

2335

积分

风之精灵LV.1

Rank: 8Rank: 8Rank: 8Rank: 8

回帖
180
雪点
26041
阅读权限
70
性别
保密
在线时间
160 小时
注册时间
2021-2-24
最后登录
2023-1-28
新月无恨 显示全部楼层 发表于 2022-11-26 19:54:16 |阅读模式
本帖最后由 新月无恨 于 2022-11-26 19:56 编辑


影片名称:小屁孩日记 Diary of a Wimpy Kid (2021)影片集數:1
影片格式:mkv
字幕语言:[普通话+台配+粤语]
存放网盘:阿里云盘
【內容簡介】:编剧: 杰夫·金尼
主演: 罗伯特·卡普荣 / Dipsy Diora / Cookie Mozder / Jordyn Curet / Lily Rose Silver
类型: 动画
制片国家/地区: 美国
语言: 英语
首播: 2021-12-03(美国)

小屁孩日记的剧情简介 · · · · · ·
  本片根据美国作家杰夫·金尼(Jeff Kinney)的同名畅销儿童系列读物改编。第一天升入初中的格雷·郝夫利(扎克瑞·戈登 Zachary Gordon 饰)忐忑不安,拼命想要突出表现成为班级年鉴中的明星。格雷的哥哥罗德里克(戴文·博斯蒂克 Devon Bostick 饰)给了他一堆不能这样也不能那样的忠告,他的好朋友罗利·杰佛森(罗伯特·卡普荣 Robert Capron 饰)却不以为然,继续沿用小学时那一套穿戴、用语、态度,让格雷十分头疼。格雷拒绝了女孩安琪(科洛·莫瑞兹 Chloe Moretz 饰)加入校报的邀请,拉着罗利加入了校安全巡逻队。在逃避万圣节得罪的三个小混混时格雷犯了错误,却又缺乏勇气承认,听任罗利替自己背了黑锅。后续事件的发展越来越糟,格雷在学校的受欢迎度直线掉落,就连他与罗利的友谊都岌岌可危…

此处影片截图

General
Unique ID                      : 83040892793102115305121827061087652368 (0x3E79181DBEFC824C546E384E4A2CCA10)
Complete name                  : G:\\小屁孩日記[普通话+台配+粤语].mkv
Format                         : Matroska
Format version                 : Version 4
File size                      : 1.68 GiB
Duration                       : 56 min 10 s
Overall bit rate mode          : Variable
Overall bit rate               : 4 295 kb/s
Movie name                     : 小屁孩日記
Description                    : 迪士尼全新动画电影《小屁孩日记》改编自杰夫·金尼令人捧腹、大受欢迎的同名系列漫画,讲述了少年格雷在成长过程中各种荒唐搞笑、充满奇趣的冒险。格雷·赫夫利是个体格瘦小但志向远大的初中生。在升入初中的第一年,他经历了一桩桩或吓人或丢脸的囧事,这也许是所有小屁孩在初中阶段的真实写照。为了安然度过初一生活,格雷使出了浑身解数,一边躲避高年级学长的欺负,一边努力吸引小女生的目光,但他始终觉得自己像个透明人。最后,格雷试图融入集体的计划宣告失败,但在此过程中,他逐渐明白了友情的真谛,并收获了真正的友谊。
Writing application            : Lavf58.76.100
Writing library                : Lavf58.76.100
Comment                        
ErrorDetectionType             : Per level 1
ARTIST                         : Brady Noon,Ethan William Childress,Chris Diamantopoulos,Erica Cerra,Hunter Dillon,Christian Convery
DATE                           : 2021

Video
ID                             : 1
Format                         : AVC
Format/Info                    : Advanced Video Codec
Format profile                 : High@L3.1
Format settings                : CABAC / 4 Ref Frames
Format settings, CABAC         : Yes
Format settings, Reference fra : 4 frames
Codec ID                       : V_MPEG4/ISO/AVC
Duration                       : 56 min 10 s
Bit rate mode                  : Variable
Bit rate                       : 3 441 kb/s
Maximum bit rate               : 6 375 kb/s
Width                          : 1 280 pixels
Height                         : 720 pixels
Display aspect ratio           : 16:9
Frame rate mode                : Constant
Frame rate                     : 23.976 (24000/1001) FPS
Color space                    : YUV
Chroma subsampling             : 4:2:0
Bit depth                      : 8 bits
Scan type                      : Progressive
Bits/(Pixel*Frame)             : 0.156
Stream size                    : 1.35 GiB (80%)
Writing library                : AVC Coding
Default                        : Yes
Forced                         : No
Color range                    : Limited
Color primaries                : BT.709
Transfer characteristics       : BT.709
Matrix coefficients            : BT.709
VENDOR_ID                      : [0][0][0][0]

Audio #1
ID                             : 2
Format                         : E-AC-3
Format/Info                    : Enhanced AC-3
Commercial name                : Dolby Digital Plus
Codec ID                       : A_EAC3
Duration                       : 56 min 10 s
Bit rate mode                  : Constant
Bit rate                       : 256 kb/s
Channel(s)                     : 6 channels
Channel layout                 : L R C LFE Ls Rs
Sampling rate                  : 48.0 kHz
Frame rate                     : 31.250 FPS (1536 SPF)
Bit depth                      : 32 bits
Compression mode               : Lossy
Stream size                    : 103 MiB (6%)
Title                          : Cantonese / BAMTech audio
Language                       : yue
Service kind                   : Complete Main
Default                        : Yes
Forced                         : No
VENDOR_ID                      : [0][0][0][0]

Audio #2
ID                             : 3
Format                         : E-AC-3
Format/Info                    : Enhanced AC-3
Commercial name                : Dolby Digital Plus
Codec ID                       : A_EAC3
Duration                       : 56 min 10 s
Bit rate mode                  : Constant
Bit rate                       : 256 kb/s
Channel(s)                     : 6 channels
Channel layout                 : L R C LFE Ls Rs
Sampling rate                  : 48.0 kHz
Frame rate                     : 31.250 FPS (1536 SPF)
Bit depth                      : 32 bits
Compression mode               : Lossy
Stream size                    : 103 MiB (6%)
Title                          : Mandarin / BAMTech audio
Language                       : cmn
Service kind                   : Complete Main
Default                        : No
Forced                         : No
VENDOR_ID                      : [0][0][0][0]

Audio #3
ID                             : 4
Format                         : E-AC-3
Format/Info                    : Enhanced AC-3
Commercial name                : Dolby Digital Plus
Codec ID                       : A_EAC3
Duration                       : 56 min 10 s
Bit rate mode                  : Constant
Bit rate                       : 256 kb/s
Channel(s)                     : 6 channels
Channel layout                 : L R C LFE Ls Rs
Sampling rate                  : 48.0 kHz
Frame rate                     : 31.250 FPS (1536 SPF)
Bit depth                      : 32 bits
Compression mode               : Lossy
Stream size                    : 103 MiB (6%)
Title                          : Taiwanese Mandarin / BAMTech audio
Language                       : cmn
Service kind                   : Complete Main
Default                        : No
Forced                         : No
VENDOR_ID                      : [0][0][0][0]



[滤镜使用列表]
  (1) Built-in MKV Source
  (2) Built-in Video Codec/Transform
  (3) Enhanced Video Renderer(Custom Present)
  (4) Built-in Audio Codec/Transform
  (5) DirectSound Audio Renderer

[视频信息]
  视频编码: AVC1 - Native D3D9 DXVA Decoder(VLD) - NVIDIA GeForce GTX 770
  输入格式: AVC1(24 bits)
  输入尺寸: 1280 × 720(1.78:1)
  输出格式: dxva
  输出尺寸: 1280 × 720(1.78:1)
  帧率: 23.976
  BitRate: 未知

[音频信息]
  音频编码: DD+(0x2000) - 内置 FFmpeg 解码器(eac3)
  采样率: 48000 -> 48000 Hz
  位率: 32 -> 16 位
  声道数: 6 -> 2 声道
  Bitrate: 256 kbps


好久没来发帖了,严禁任何形式的提取再加工,转载,合成发布,多谢配合 禁止任何商业贩卖谋利等行为!多谢配合 注:发帖不到之处尽请见谅,违规的话请管理员删帖,谢谢。


游客,如果您要查看本帖隐藏内容请回复


本帖子中包含更多资源

您需要 登录 才可以下载或查看,没有账号?立即注册

x
2 25
分享

签到天数: 284 天

[LV.8]以坛为家I

0

主题

1

好友

2507

积分

风之精灵LV.1

Rank: 8Rank: 8Rank: 8Rank: 8

回帖
2045
雪点
4613
阅读权限
70
性别
保密
在线时间
245 小时
注册时间
2022-4-21
最后登录
2023-1-31
生化之父 来自手机 显示全部楼层 发表于 2022-11-26 20:12:05
去年出的tv连续剧,这么快就推出粤语版?
回复 支持 反对

使用道具 举报

签到天数: 518 天

[LV.9]以坛为家II

11

主题

0

好友

1293

积分

土之精灵LV.3

Rank: 7Rank: 7Rank: 7

回帖
372
雪点
11292
阅读权限
60
性别
保密
在线时间
537 小时
注册时间
2021-7-4
最后登录
2023-1-30
nas147 显示全部楼层 发表于 2022-11-26 20:14:08
谢谢小屁孩
回复 支持 反对

使用道具 举报

 成长值: 10

签到天数: 308 天

[LV.8]以坛为家I

242

主题

4

好友

1万

积分

精灵魔法师☆★

Rank: 25Rank: 25Rank: 25Rank: 25Rank: 25

回帖
10984
雪点
10478
阅读权限
150
性别
在线时间
900 小时
注册时间
2022-3-1
最后登录
2023-1-30
tom246 来自手机 显示全部楼层 发表于 2022-11-26 22:03:38
有无2022年加?
回复 支持 反对

使用道具 举报

签到天数: 689 天

[LV.9]以坛为家II

1

主题

0

好友

1786

积分

风之精灵LV.1

Rank: 8Rank: 8Rank: 8Rank: 8

回帖
293
雪点
14848
阅读权限
70
在线时间
344 小时
注册时间
2016-9-2
最后登录
2023-1-31
麦兜腩 显示全部楼层 发表于 2022-11-27 00:02:28
睇错佐,以为系22年既,不过都要支持一下既!
回复 支持 反对

使用道具 举报

签到天数: 2297 天

[LV.Master]伴坛终老

5

主题

0

好友

2153

积分

风之精灵LV.1

Rank: 8Rank: 8Rank: 8Rank: 8

回帖
451
雪点
20581
阅读权限
70
性别
在线时间
600 小时
注册时间
2015-5-17
最后登录
2023-1-29
usaabo 显示全部楼层 发表于 2022-11-27 07:20:58
未睇过下来睇睇先~~这画风应该好睇
回复 支持 反对

使用道具 举报

签到天数: 958 天

[LV.10]以坛为家III

10

主题

0

好友

1440

积分

土之精灵LV.3

Rank: 7Rank: 7Rank: 7

回帖
1072
雪点
4807
阅读权限
60
性别
在线时间
470 小时
注册时间
2014-3-16
最后登录
2023-1-30
tanchong 来自手机 显示全部楼层 发表于 2022-11-27 09:51:14
nice movie thanks again
回复 支持 反对

使用道具 举报

签到天数: 333 天

[LV.8]以坛为家I

12

主题

0

好友

4826

积分

风之精灵LV.2

Rank: 13Rank: 13Rank: 13

回帖
3681
雪点
11200
阅读权限
80
在线时间
533 小时
注册时间
2018-6-24
最后登录
2023-1-31
kjtifl 显示全部楼层 发表于 2022-11-27 11:26:16
迪士尼版3毛,距真系得3条毛
回复 支持 反对

使用道具 举报

签到天数: 2897 天

[LV.Master]伴坛终老

12

主题

0

好友

1万

积分

炎之精灵LV.2

Rank: 17Rank: 17Rank: 17Rank: 17Rank: 17

回帖
13714
雪点
18972
阅读权限
110
在线时间
849 小时
注册时间
2012-10-28
最后登录
2023-1-30
asd2008asd 显示全部楼层 发表于 2022-11-27 12:37:00
以前睇过都觉得搞笑
回复 支持 反对

使用道具 举报

签到天数: 33 天

[LV.5]常住居民I

157

主题

4

好友

4391

积分

风之精灵LV.2

粤语动画拾荒者

Rank: 13Rank: 13Rank: 13

回帖
3683
雪点
3605
阅读权限
80
性别
在线时间
1098 小时
注册时间
2012-8-21
最后登录
2023-1-30
netasa 显示全部楼层 发表于 2022-11-27 12:47:39
及下要几雪先。
回复 支持 反对

使用道具 举报

您需要登录后才可以回帖 登录 | 立即注册

本版积分规则

粤梦缘是国内粤语爱好者社区,集动漫、影视、音乐的综合性分享及交流平台。 网站共设,动漫资讯、动漫分享、漫画分享、讨论等多个频道。
  • 官方手机版

  • 官方QQ群

  • 商务合作

  • Powered by Discuz! X3.4 | Copyright © 2001-2022, Tencent Cloud. | 粤梦缘
  • | 营业执照 |星点互联科技有限公司|鲁ICP备19001237号-21|鲁公网安备 4236902302000354号