找回密码
 立即注册
快捷导航
发帖
飘盘 聊天 资讯 萌图 漫画 动画 规则 帮助 手机客户端 新手指南
查看: 1249|回复: 49

[粤语动画] [哆啦A梦剧场版1988:大雄的平行西游记][1080i/HDTV/TS/双国配粤日三语/13.47GB]

  [复制链接]

签到天数: 162 天

[LV.7]常住居民III

12

主题

1

好友

172

积分

水之精灵LV.3

Rank: 4Rank: 4

帖子
58
雪点
1204
阅读权限
30
性别
在线时间
59 小时
注册时间
2015-11-27
最后登录
2019-6-27
发表于 2018-12-16 00:50:21 | 显示全部楼层 |阅读模式
片源由a574045075提供,在此感谢!
台配国语音轨、港配国语音轨、粤语音轨提取自VCD,已做调制匹配高清重制版。
如需转载,请注明出处!

[attach]115597[/attach]
◎译  名 哆啦A梦:大雄的平行西游记 / Doraemon: Nobita no Parareru saiyûki
◎片  名 ドラえもん のび太のパラレル西遊記
◎年  代 1988
◎产  地 日本
◎类  别 科幻 / 动画 / 冒险
◎语  言 日语
◎上映日期 1988-03-12(日本)
◎IMDb评分  6.8/10 from 115 users
◎IMDb链接 ‍‍ ‍‍http://www.imdb.com/title/tt1147525
‍‍◎豆瓣评分 7.6/10 from 3368 users
◎豆瓣链接 ‍‍https://movie.douban.com/subject/1458896/
‍‍◎片  长 91分钟
◎导  演 芝山努 Tsutomu Shibayama
◎主  演 大山信代 Nobuyo Ohyama
                   小原乃梨子 Noriko Ohara
                   野村道子 Michiko Nomura
                   立壁和也 Kazuya Tatekabe
                   肝付兼太 Kaneta Kimotsuki

◎简  介  

  为了在新生欢迎会上表演话剧《西游记》,大雄班级举行的话剧的排练。大雄(小原乃梨子 配音)想当孙悟空,可是却只是村人甲。为了证明自己最像孙悟空,大雄用航时机来到中国唐朝,想见孙悟空,而且真的见到了“孙悟空”。后来大雄以哆啦A梦(大山信代 配音)的道具为赌注,证明孙悟空很像 大雄。大雄与他的朋友来到唐朝,却没有见到孙悟空。因此大雄用哆啦A梦的模拟游戏机假扮孙悟空,最后被识破。由于没有关好机器,游戏里的妖怪从游戏机里跑了出来。妖怪最后统治了世界,大雄他们也面临危险。 为了恢复历史,拯救玄奘法师,大雄、静香(野村道子 配音)、小夫(肝付兼太 配音)和刚田武(立壁和也 配音)假扮孙悟空等角色来保护玄奘法师,踏上了冒险之旅……
  故事改编自小说《西游记》。‍‍‍‍‍‍‍‍‍‍‍‍

[attach]115598[/attach]
[attach]115599[/attach]
[attach]115600[/attach]
  1. General
  2. ID                          : 1 (0x1)
  3. Complete name               : J:\Doraemon The Record of Nobita‘s Parallel Visit to the West 1988 HDTV 1080i MPEG-2 4Audio-doraemon.ts
  4. Format                      : MPEG-TS
  5. File size                   : 13.5 GiB
  6. Duration                    : 1 h 30 min
  7. Overall bit rate mode       : Variable
  8. Overall bit rate            : 21.2 Mb/s
  9. Maximum Overall bit rate    : 35.5 Mb/s

  10. Video
  11. ID                          : 4113 (0x1011)
  12. Menu ID                     : 1 (0x1)
  13. Format                      : MPEG Video
  14. Format version              : Version 2
  15. Format profile              : Main@High
  16. Format settings             : CustomMatrix / BVOP
  17. Format settings, BVOP       : Yes
  18. Format settings, Matrix     : Custom
  19. Format settings, GOP        : Variable
  20. Format settings, picture st : Frame
  21. Codec ID                    : 2
  22. Duration                    : 1 h 30 min
  23. Bit rate mode               : Variable
  24. Width                       : 1 920 pixels
  25. Height                      : 1 080 pixels
  26. Display aspect ratio        : 16:9
  27. Frame rate                  : 29.970 (30000/1001) FPS
  28. Color space                 : YUV
  29. Chroma subsampling          : 4:2:0
  30. Bit depth                   : 8 bits
  31. Scan type                   : Interlaced
  32. Scan order                  : Top Field First
  33. Compression mode            : Lossy
  34. Time code of first frame    : 00:00:00:00
  35. Time code source            : Group of pictures header
  36. GOP, Open/Closed            : Open
  37. Color primaries             : BT.709
  38. Transfer characteristics    : BT.709
  39. Matrix coefficients         : BT.709

  40. Audio #1
  41. ID                          : 4352 (0x1100)
  42. Menu ID                     : 1 (0x1)
  43. Format                      : AAC LC
  44. Format/Info                 : Advanced Audio Codec Low Complexity
  45. Format version              : Version 2
  46. Muxing mode                 : ADTS
  47. Codec ID                    : 15-2
  48. Duration                    : 1 h 30 min
  49. Bit rate mode               : Variable
  50. Channel(s)                  : 2 channels
  51. Channel layout              : L R
  52. Sampling rate               : 48.0 kHz
  53. Frame rate                  : 46.875 FPS (1024 SPF)
  54. Compression mode            : Lossy
  55. Language                    : Japanese

  56. Audio #2
  57. ID                          : 4353 (0x1101)
  58. Menu ID                     : 1 (0x1)
  59. Format                      : AC-3
  60. Format/Info                 : Audio Coding 3
  61. Commercial name             : Dolby Digital
  62. Codec ID                    : 129
  63. Duration                    : 1 h 30 min
  64. Bit rate mode               : Constant
  65. Bit rate                    : 224 kb/s
  66. Channel(s)                  : 2 channels
  67. Channel layout              : L R
  68. Sampling rate               : 48.0 kHz
  69. Frame rate                  : 31.250 FPS (1536 SPF)
  70. Bit depth                   : 16 bits
  71. Compression mode            : Lossy
  72. Stream size                 : 145 MiB (1%)
  73. Language                    : Chinese 台配国语
  74. Service kind                : Complete Main

  75. Audio #3
  76. ID                          : 4354 (0x1102)
  77. Menu ID                     : 1 (0x1)
  78. Format                      : AC-3
  79. Format/Info                 : Audio Coding 3
  80. Commercial name             : Dolby Digital
  81. Codec ID                    : 129
  82. Duration                    : 1 h 30 min
  83. Bit rate mode               : Constant
  84. Bit rate                    : 224 kb/s
  85. Channel(s)                  : 2 channels
  86. Channel layout              : L R
  87. Sampling rate               : 48.0 kHz
  88. Frame rate                  : 31.250 FPS (1536 SPF)
  89. Bit depth                   : 16 bits
  90. Compression mode            : Lossy
  91. Stream size                 : 145 MiB (1%)
  92. Language                    : Chinese 港配国语
  93. Service kind                : Complete Main

  94. Audio #4
  95. ID                          : 4355 (0x1103)
  96. Menu ID                     : 1 (0x1)
  97. Format                      : AC-3
  98. Format/Info                 : Audio Coding 3
  99. Commercial name             : Dolby Digital
  100. Codec ID                    : 129
  101. Duration                    : 1 h 30 min
  102. Bit rate mode               : Constant
  103. Bit rate                    : 224 kb/s
  104. Channel(s)                  : 2 channels
  105. Channel layout              : L R
  106. Sampling rate               : 48.0 kHz
  107. Frame rate                  : 31.250 FPS (1536 SPF)
  108. Bit depth                   : 16 bits
  109. Compression mode            : Lossy
  110. Stream size                 : 145 MiB (1%)
  111. Language                    : Chinese
  112. Service kind                : Complete Main
复制代码


购买主题 已有 22 人购买  本主题需向作者支付 5 雪点 才能浏览
飘雪动漫社★缤纷动漫☆创意未来!

签到天数: 1722 天

[LV.Master]伴坛终老

99

主题

7

好友

2万

积分

炎之精灵LV.3

Rank: 17Rank: 17Rank: 17Rank: 17Rank: 17

帖子
23506
雪点
7268
阅读权限
120
性别
保密
在线时间
2527 小时
注册时间
2014-4-6
最后登录
2019-7-22
发表于 2018-12-16 02:57:49 | 显示全部楼层
好大啊,谢谢楼主分享啊!
飘雪动漫社★缤纷动漫☆创意未来!
回复 支持 反对

使用道具 举报

签到天数: 740 天

[LV.9]以坛为家II

11

主题

2

好友

1463

积分

土之精灵LV.3

小弟

Rank: 7Rank: 7Rank: 7

帖子
1373
雪点
1108
阅读权限
60
性别
在线时间
634 小时
注册时间
2012-9-8
最后登录
2019-7-21
发表于 2018-12-16 06:59:40 | 显示全部楼层
thanks for your sharing!!!!
別人笑我太瘋癲,我笑他們看不穿
回复 支持 反对

使用道具 举报

签到天数: 1271 天

[LV.10]以坛为家III

18

主题

13

好友

5309

积分

风之精灵LV.2

Rank: 13Rank: 13Rank: 13

帖子
4487
雪点
9858
阅读权限
80
性别
在线时间
1260 小时
注册时间
2014-11-6
最后登录
2019-7-21

捐助会员

发表于 2018-12-16 09:13:01 | 显示全部楼层
高清修复1080i版本一定要支持~~~谢谢楼主分享!!!
回复 支持 反对

使用道具 举报

签到天数: 244 天

[LV.8]以坛为家I

3

主题

0

好友

769

积分

土之精灵LV.2

Rank: 6Rank: 6

帖子
453
雪点
3631
阅读权限
50
性别
保密
在线时间
87 小时
注册时间
2018-11-20
最后登录
2019-7-21
发表于 2018-12-16 09:26:56 | 显示全部楼层
好似未睇過呢套叮噹,Thank You!
飘雪动漫社★缤纷动漫☆创意未来!
回复 支持 反对

使用道具 举报

签到天数: 1402 天

[LV.10]以坛为家III

 成长值: 6120

200

主题

5

好友

9648

积分

贵宾

Rank: 25Rank: 25Rank: 25Rank: 25Rank: 25

帖子
3210
雪点
76649
阅读权限
150
性别
保密
在线时间
2389 小时
注册时间
2014-6-6
最后登录
2019-7-22
发表于 2018-12-16 09:32:45 | 显示全部楼层
多谢分享哆啦A梦呢部经典剧场版
飘雪动漫社★缤纷动漫☆创意未来!
回复 支持 反对

使用道具 举报

签到天数: 1873 天

[LV.Master]伴坛终老

656

主题

6

好友

3万

积分

超级版主

Rank: 25Rank: 25Rank: 25Rank: 25Rank: 25

帖子
29746
雪点
6894
阅读权限
250
在线时间
4343 小时
注册时间
2013-11-20
最后登录
2019-7-22
发表于 2018-12-16 10:10:56 | 显示全部楼层
13.47GB, 不簡單

有聲 無畫面, 出不了字幕, 以下的可以
potplayer download link ->  https://potplayer.daum.net/?lang=zh_TW
MPC download link -> http://www.free-codecs.com/k_lite_codec_pack_download.htm
回复 支持 反对

使用道具 举报

签到天数: 314 天

[LV.8]以坛为家I

1

主题

0

好友

170

积分

水之精灵LV.3

Rank: 4Rank: 4

帖子
42
雪点
1286
阅读权限
30
性别
保密
在线时间
150 小时
注册时间
2018-2-26
最后登录
2019-7-22
发表于 2018-12-16 10:29:55 | 显示全部楼层
多謝你,這套都算很久的動漫片,支持你
飘雪动漫社★缤纷动漫☆创意未来!
回复 支持 反对

使用道具 举报

签到天数: 515 天

[LV.9]以坛为家II

4

主题

1

好友

734

积分

土之精灵LV.2

Rank: 6Rank: 6

帖子
574
雪点
1846
阅读权限
50
性别
在线时间
127 小时
注册时间
2017-5-30
最后登录
2019-7-21
发表于 2018-12-16 10:55:45 | 显示全部楼层
居然系港配的国语?
飘雪动漫社★缤纷动漫☆创意未来!
回复 支持 反对

使用道具 举报

签到天数: 238 天

[LV.7]常住居民III

3

主题

0

好友

1038

积分

土之精灵LV.3

Rank: 7Rank: 7Rank: 7

帖子
766
雪点
4081
阅读权限
60
性别
保密
在线时间
116 小时
注册时间
2017-4-3
最后登录
2019-7-19
发表于 2018-12-16 13:36:43 | 显示全部楼层
犀利喔      好耐之前睇过     多谢分享
飘雪动漫社★缤纷动漫☆创意未来!
回复 支持 反对

使用道具 举报

您需要登录后才可以回帖 登录 | 立即注册

本版积分规则

下载客户端
安卓客户端 IOS客户端

快来加入我们吧!!

官方QQ群号

飘雪动漫社

Powered by Discuz! X3.4© 2001-2019 Comsenz Inc.

手机版| 小黑屋| Archiver| 粤梦缘

GMT+8, 2019-7-22 06:05 , Processed in 0.142987 second(s), 40 queries , MemCache On.